Page 5 of 44 FirstFirst 12345678915 ... LastLast
Results 41 to 50 of 433

Thread: MPlayerWii - Native MPlayer port for the Wii

                  
   
  1. #41
    DCEmu Newbie
    Join Date
    May 2008
    Posts
    23
    Rep Power
    0

    Default

    Hi fcorbier, I've just noticed that your app is the best player on video playback speed (merely few lag/fast seeking) so far. However, the image is not as good as "geexbox" casuse I can see lots of color blocks clearly (sorry if I make you confused since I don't know how to say)...

    Well, I'd rather say your app is running at 16bit color but not 32bit??? Also the so-called "debolck" function is not included???
    Last edited by m_jay; July 11th, 2008 at 10:33.

  2. #42

    Default

    Wow, a great app. In early development, but really good so far! Tested a bit:

    AVI, XviD, MP3, 24fps: perfect
    AVI, WMV9, MP3, 120fps: perfect (what I didn't expect)
    MKV, x264, 2x AAC, VFR: crash
    MKV, x264, AAC, 30fps: audio plays, video plays a few secs, then stops for a few sec. Starts for a few sec, stops again and then crash
    AVI, WMV9, MP3, 24fps, 720p: weird video, crash after a few sec.
    FLAC, 2ch, 44,1kHz: displays "4 bytes of audio data lost due to buffer overflow" now and then... but plays fine
    AAC, 2ch, 44,1kHz: black screen at all modes (LC-AAC, HE-AAC, HEv2-AAC)
    MP3, 2ch, 44,1kHz, VBR: same as FLAC + displays "128 kbps" which is wrong cause its VBR ~140 kbps

    Keep up the good work!

    Only (not codec related) bug so far: audio is cut off a bit everytime you pause, so the video speeds up to reach the audio.
    Last edited by MajinVegeta2; July 11th, 2008 at 12:39.

  3. #43
    DCEmu Newbie
    Join Date
    Jun 2008
    Posts
    44
    Rep Power
    0

    Default

    So everything is cool except for subtitle support?

  4. #44
    DCEmu Newbie
    Join Date
    Dec 2006
    Posts
    10
    Rep Power
    0

    Default

    This is an absolutely AWESOME home brew app.

    Thanks for bringing us this, i can now watch full movies, cartoons etc etc just by slappin them straight on my SD card...

    no need to spend ages to convert or burn anymore.





    Oh and don't listen to those who want a new "GUI" it doesn't need one, i think that's part of its charm. Its a video/mp3 player its not a full blown flashy piece of crap media center that hardly plays any formats.

    once again thanks!!!


    The only thing I want now is someone to make a MPLAYER channel :-)

  5. #45
    DCEmu Coder
    Join Date
    Mar 2006
    Posts
    29
    Rep Power
    0

    Default

    For those who have a widescreen TV set in 16:9 aspect ratio, could you test the following version and let me know if this fixes your aspect display problems?

    I only have a 4:3 TV to test with here =/

    Also, make sure the proper aspect ratio is set in the Wii dashboard configuration screen.
    Last edited by fcorbier; July 11th, 2008 at 22:48.

  6. #46

    Default

    Quote Originally Posted by fcorbier View Post
    For those who have a widescreen TV set in 16:9 aspect ratio, could you test the following version and let me know if this fixes your aspect display problems?

    I only have a 4:3 TV to test with here =/

    Also, make sure the proper aspect ratio is set in the Wii dashboard configuration screen.
    Ratio is perfect! Thank you very much for releasing this! I can't wait to see this project develop! Videos play very well. Finally we have a working media player for the Wii!

  7. #47
    DCEmu Newbie AshTR's Avatar
    Join Date
    Sep 2006
    Location
    Texas
    Age
    29
    Posts
    63
    Rep Power
    0

    Default

    Quote Originally Posted by fcorbier View Post
    For those who have a widescreen TV set in 16:9 aspect ratio, could you test the following version and let me know if this fixes your aspect display problems?

    I only have a 4:3 TV to test with here =/

    Also, make sure the proper aspect ratio is set in the Wii dashboard configuration screen.
    Will this work on both 16:9 and 4:3 TVs? Because I swap my Wii between them and don't want to mess with it if this doesn't support both.

  8. #48
    DCEmu Coder
    Join Date
    Mar 2006
    Posts
    29
    Rep Power
    0

    Default

    Quote Originally Posted by AshTR View Post
    Will this work on both 16:9 and 4:3 TVs? Because I swap my Wii between them and don't want to mess with it if this doesn't support both.
    Yes, the version I just posted works with both 4:3 and 16:9 aspect ratios.

  9. #49

    Default

    Quote Originally Posted by qwerty11 View Post

    Oh and don't listen to those who want a new "GUI" it doesn't need one, i think that's part of its charm. Its a video/mp3 player its not a full blown flashy piece of crap media center that hardly plays any formats.

    once again thanks!!!

    The only thing I want now is someone to make a MPLAYER channel :-)
    Im with you this application don't need a GUI, it's more important the optimization and the utilization on a folder instead the SD root.

    I'm test with this video and just work for a few seconds:
    Format : MPEG-4
    File size : 230 MiB
    Duration : 25mn 0s
    Overal bit rate : 1288 Kbps

    Video
    Format : AVC
    Format profile : High@L5.1
    Format settings, CABAC : Yes
    Format settings, ReFrames : 10 frames
    Duration : 24mn 59s
    Bit rate mode : Variable
    Bit rate : 981 Kbps
    Maximum bit rate : 6880 Kbps
    Width : 848 pixels
    Height : 480 pixels
    Display aspect ratio : 16/9
    Frame rate mode : Constant
    Frame rate : 23.976 fps
    Colorimetry : 4:2:0
    Scan type : Progressive
    Bits/(Pixel*Frame) : 0.101
    Stream size : 175 MiB
    Writing library : x264 core 54 svn-614M

    Audio
    Format : AAC
    Format/Info : Advanced Audio Codec
    Format version : Version 4
    Format profile : LC
    Format settings, SBR : No
    Codec ID : 40
    Duration : 25mn 0s
    Bit rate mode : Variable
    Bit rate : 304 Kbps
    Maximum bit rate : 391 Kbps
    Channel(s) : 6 channels
    Channel positions : Front: L C R, Rear: L R, LFE
    Sampling rate : 48.0 KHz
    Resolution : 16 bits
    Stream size : 54.4 MiB
    Language : Japanese
    And thanks this homebrew rocks!!!!!

  10. #50

    Default

    very smooth in playing flv and mp3,good work!
    will it be support dvd rom later?
    it's great if we can burn some avi or mp3 to the disc

Page 5 of 44 FirstFirst 12345678915 ... LastLast

Thread Information

Users Browsing this Thread

There are currently 1 users browsing this thread. (0 members and 1 guests)

Tags for this Thread

Bookmarks

Posting Permissions

  • You may not post new threads
  • You may not post replies
  • You may not post attachments
  • You may not edit your posts
  •